Killer Toon 2013 XviD

After a series of murders are committed that mimic a famous webcomic (called “webtoon” in Korea), detective Lee Ki-cheol (Um Ki-joon) places the cartoonist Kang Ji-yoon (Lee Si-young) on the list of suspects

 Movie: Killer Toon (English title)
 Revised romanization: Deo Webtoon: Yeogosalin
 Hangul: 더 웹툰 : 예고살인
 Director: Kim Yong-Kyoon
 Writer: Lee Sang-Hak
 Producer: Kim Kyoung-Joon, Lee Sang-Hak, Song Ki-Yoon, Han Man-Taek, Lim Kyoung-Taek, Min Hyoun-Il, Park Sung-Joon, Park Kyoung-Young, Kim Jae-Gyoon, Kim Dong-Soo, Oh Kyoung-Min, Lee Myoung-Soo, Jung Min-Woo
 Cinematographer: Lee Joong-Bae, Song Jae-Wan
 Release Date: June 27, 2013
 Runtime: 104 min.
 Genre: Horror / Thriller
 Distributor: CJ Entertainment
 Language: Korean
 Country: South Korea

Code

Complete name                            : Killer.Toon.2013.XviD-XYZ.avi
Format                                   : AVI
Format/Info                              : Audio Video Interleave
File size                                : 700 MiB
Duration                                 : 1h 44mn
Overall bit rate                         : 940 Kbps
Writing application                      : Nandub v1.0rc2
Writing library                          : Nandub build 1853/release

Video
ID                                       : 0
Format                                   : MPEG-4 Visual
Format profile                           : Advanced Simple@L5
Format settings, BVOP                    : 2
Format settings, QPel                    : No
Format settings, GMC                     : No warppoints
Format settings, Matrix                  : Default (H.263)
Muxing mode                              : Packed bitstream
Codec ID                                 : XVID
Codec ID/Hint                            : XviD
Duration                                 : 1h 44mn
Bit rate                                 : 832 Kbps
Width                                    : 640 pixels
Height                                   : 352 pixels
Display aspect ratio                     : 16:9
Frame rate                               : 23.976 fps
Color space                              : YUV
Chroma subsampling                       : 4:2:0
Bit depth                                : 8 bits
Scan type                                : Progressive
Compression mode                         : Lossy
Bits/(Pixel*Frame)                       : 0.154
Stream size                              : 619 MiB (88%)
Writing library                          : XviD 1.2.1 (UTC 2008-12-04)

Audio
ID                                       : 1
Format                                   : MPEG Audio
Format version                           : Version 1
Format profile                           : Layer 3
Mode                                     : Joint stereo
Mode extension                           : Intensity Stereo + MS Stereo
Codec ID                                 : 55
Codec ID/Hint                            : MP3
Duration                                 : 1h 44mn
Bit rate mode                            : Constant
Bit rate                                 : 96.0 Kbps
Channel(s)                               : 2 channels
Sampling rate                            : 48.0 KHz
Compression mode                         : Lossy
Stream size                              : 71.5 MiB (10%)
Alignment                                : Aligned on interleaves
Interleave, duration                     : 24 ms (0.58 video frame)
Interleave, preload duration             : 480 ms



source:asiatorrents.me
Pin It

Leave a Reply

Your email address will not be published. Required fields are marked *

You may use these HTML tags and attributes: <a href="" title=""> <abbr title=""> <acronym title=""> <b> <blockquote cite=""> <cite> <code> <del datetime=""> <em> <i> <q cite=""> <strike> <strong>